#TITLE:Only My Railgun;
#SUBTITLE:Expi3nze;
#ARTIST:Unknown artist;
#TITLETRANSLIT:;
#SUBTITLETRANSLIT:;
#ARTISTTRANSLIT:;
#CREDIT:;
#BANNER:bn.png;
#BACKGROUND:bg.png;
#LYRICSPATH:;
#CDTITLE:cdtitle.png;
#MUSIC:Only My Railgun.mp3;
#OFFSET:-0.560;
#SAMPLESTART:62.658;
#SAMPLELENGTH:28.531;
#SELECTABLE:YES;
#BPMS:0.000=143.004,2.000=142.996,3.000=143.004,4.000=142.996,5.000=143.004,6.000=142.996,7.000=143.004,8.000=142.996,9.000=143.004,10.000=142.996,11.000=143.004,12.000=142.996,13.000=143.004,14.000=142.996,15.000=143.004,16.000=142.996,17.000=143.004,18.000=142.996,19.000=143.004,20.000=142.996,21.000=143.004,22.000=142.996,23.000=143.004,24.000=142.996,25.000=143.004,26.000=142.996,27.000=143.004,28.000=142.996,29.000=143.004,30.000=71.500,31.000=214.512,32.000=214.494,34.000=143.004,35.000=142.996,36.000=143.004,37.000=142.996,38.000=143.004,39.000=142.996,40.000=143.004,41.000=142.996,42.000=143.004,43.000=142.996,44.000=143.004,45.000=142.996,46.000=143.004,48.000=142.996,49.000=143.004,50.000=142.996,51.000=143.004,52.000=142.996,53.000=143.004,54.000=142.996,56.000=143.004,57.000=142.996,58.000=143.004,60.000=142.996,61.000=143.004,62.000=142.996,64.000=143.004,66.000=142.996,67.000=143.004,68.000=142.996,69.000=143.004,70.000=142.996,71.000=143.004,72.000=142.996,73.000=143.004,74.000=142.996,75.000=143.004,76.000=142.996,77.000=143.004,78.000=71.500,79.000=214.512,80.000=214.494,82.000=143.004,83.000=142.996,84.000=143.004,85.000=142.996,86.000=143.004,87.000=142.996,88.000=143.004,89.000=142.996,90.000=143.004,91.000=142.996,92.000=143.004,93.000=142.996,94.000=143.004,95.000=142.996,96.000=71.504,96.333=286.039,97.000=71.504,97.333=286.039,98.000=143.004,99.000=142.996,100.000=143.004,101.000=142.996,102.000=143.004,103.000=142.996,104.000=143.004,105.000=142.996,106.000=143.004,107.000=142.996,108.000=143.004,109.000=142.996,110.000=143.004,111.000=142.996,112.000=143.004,113.000=142.996,114.000=143.004,115.000=142.996,116.000=143.004,117.000=142.996,118.000=143.004,119.000=142.996,120.000=143.004,121.000=142.996,122.000=143.004,123.000=142.996,124.000=143.004,125.000=142.996,126.000=143.004,127.000=142.996,128.000=143.004,129.000=142.996,130.000=143.004,131.000=142.996,132.000=143.004,133.000=142.996,134.000=143.004,135.000=142.996,136.000=143.004,137.000=142.996,138.000=143.004,139.000=142.996,140.000=143.004,141.000=142.996,142.000=143.004,143.000=142.996,144.000=143.004,145.000=142.996,146.000=71.506,146.250=286.054,146.750=71.506,147.000=286.054,147.500=143.012,148.000=142.996,149.000=143.004,150.000=142.996,151.000=143.004,152.000=142.996,153.000=143.004,154.000=142.996,155.000=143.004,156.000=142.996,157.000=143.004,158.000=142.996,159.000=143.004,160.000=142.996,161.000=143.004,162.000=142.996,163.000=143.004,164.000=142.996,165.000=143.004,166.000=142.996,167.000=143.004,168.000=142.996,169.000=143.004,170.000=142.996,171.000=143.004,172.000=142.996,173.000=143.004,174.000=142.996,175.000=143.004,176.000=142.996,177.000=143.004,178.000=142.996,179.000=143.004,180.000=142.996,181.000=143.004,182.000=142.996,183.000=143.004,184.000=142.996,185.000=143.004,186.000=142.996,187.000=143.004,188.000=142.996,189.000=143.004,190.000=142.996,191.000=143.004,192.000=142.996,193.000=143.004,194.000=142.996,195.000=143.004,196.000=142.996,197.000=143.004,198.000=142.996,199.000=143.004,200.000=142.996,201.000=143.004,202.000=142.996,203.000=143.004,204.000=142.996,205.000=143.004,206.000=142.996,207.000=143.004,208.000=142.996,209.000=143.004,210.000=142.996,211.000=143.004,212.000=142.996,213.000=143.004,214.000=142.996,215.000=143.004,216.000=142.996,217.000=143.004,218.000=142.996,219.000=143.004,220.000=142.996,221.000=143.004,222.000=142.996,223.000=143.004,224.000=142.996,225.000=143.004,226.000=142.996,227.000=143.004,228.000=142.996,229.000=143.004,230.000=142.996,231.000=143.004,232.000=142.996,233.000=143.004,234.000=142.996,235.000=143.004,236.000=142.996,237.000=143.004,238.000=142.996,239.000=143.004,240.000=142.996,241.000=143.004,242.000=142.996,243.000=143.004,244.000=142.996,245.000=143.004,246.000=142.996,247.000=143.004,248.000=142.996,249.000=143.004,250.000=142.996,251.000=143.004,252.000=142.996,253.000=143.004,254.000=214.512,255.000=214.494,257.000=143.004,258.000=142.996,259.000=143.004,260.000=142.996,261.000=143.004,262.000=142.996,263.000=143.004,264.000=142.996,265.000=143.004,266.000=142.996,267.000=143.004,268.000=142.996,269.000=143.004,270.000=142.996,271.000=143.004,272.000=142.996,273.000=143.004,274.000=142.996,275.000=143.004,276.000=142.996,277.000=143.004,278.000=142.996,279.000=143.004,280.000=142.996,281.000=143.004,282.000=142.996,282.250=71.506,282.500=285.992,283.000=143.004,284.000=142.996,285.000=143.004,286.000=142.996,287.000=143.004,288.000=142.996,289.000=143.004,290.000=142.996,291.000=143.004,292.000=142.996,293.000=143.004,294.000=142.996,295.000=143.004,296.000=142.996,297.000=143.004,298.000=142.996,299.000=143.004,300.000=142.996,301.000=143.004,302.000=142.996,303.000=143.004,304.000=142.996,305.000=143.004,306.000=142.996,307.000=143.004,308.000=142.996,309.000=143.004,310.000=142.996,311.000=143.004,312.000=142.996,313.000=143.004,314.000=142.996,315.000=143.004,316.000=142.996,317.000=143.004,318.000=142.996,319.000=143.004,320.000=142.996,321.000=143.004,322.000=142.996,323.000=143.004,324.000=142.996,325.000=143.004,326.000=142.996,327.000=143.004,328.000=142.996,329.000=143.004,330.000=142.996,331.000=143.004,332.000=142.996,333.000=143.004,334.000=142.996,335.000=143.004,336.000=142.996,337.000=143.004,338.000=142.996,339.000=143.004,340.000=142.996,341.000=143.004,342.000=142.996,343.000=143.004,344.000=142.996,345.000=143.004,346.000=142.996,347.000=143.004;
#STOPS:;
#BGCHANGES:;
// cache tags:
#FIRSTBEAT:2.000;
#LASTBEAT:347.000;
#SONGFILENAME:Songs/9you/Only My Railgun/Only My Railgun.sm;
#HASMUSIC:1;
#HASBANNER:1;
#MUSICLENGTH:146.451;
// end cache tags

//---------------dance-single - ----------------
#NOTES:
     dance-single:
     :
     Hard:
     27:
     1.000,1.000,1.000,0.492,0.932,901.000,298.000,72.000,0.000,50.000:
0000
0000
0000
0000
0000
0000
0000
0000
1001
0000
1100
0000
0011
0000
1000
0100
,
0010
0010
0100
0000
2011
0000
0100
0010
0001
0000
0101
0000
0001
0001
0100
0010
,
3001
0001
0100
0000
0011
0000
1000
0100
0011
0000
1100
0000
1001
0000
0100
0010
,
0100
0100
0010
0000
1002
0000
0010
0100
2010
0000
0110
0000
0010
0010
0103
0010
,
0100
0100
0001
0000
0101
0000
0100
3010
0101
0000
0001
0000
1100
0000
0001
0010
,
1000
0000
1001
0000
0211
0000
1000
0010
1001
0000
0001
0000
1000
1000
0010
1000
,
0010
0010
1002
0000
1000
0000
0010
1003
0010
0010
1000
1000
0011
0010
1000
1000
,
0010
0000
0000
0010
0000
0000
1000
0000
0000
1000
0000
0000
0010
0000
0010
0000
0010
0000
1000
0000
0000
1300
0000
0000
1011
0000
0000
0110
0000
0000
1000
0000
0000
0011
0000
0000
1000
0000
0000
0000
0000
0000
0000
0000
0000
1001
0000
0000
,
0000
0000
0110
0000
0000
1001
0000
0000
1111
0000
1000
1000
0001
0000
1001
0000
,
0110
0000
0010
0010
0100
0000
0110
0000
1100
0000
0001
0001
1000
0000
1001
0000
,
0101
0000
1010
0000
0101
0000
1010
0000
1100
1000
0001
0001
1100
0000
0001
0000
,
1100
1000
0001
0001
1100
0000
0001
0000
0111
0000
0000
0001
1110
0000
1000
0000
,
1011
0000
0001
0000
1101
0000
1000
0000
0011
0000
1000
1000
0001
0000
1001
0000
,
1100
0000
0001
0001
1000
0000
1001
0000
0110
0000
0100
0100
0010
0000
0110
0000
,
1001
0000
0110
0000
0110
0000
1001
0000
2010
0010
0100
0010
3100
0010
0100
0100
,
0011
0001
1100
1000
0110
0000
0110
0000
1002
1000
0010
0003
2001
0000
0100
3000
,
0210
0010
1000
0301
0120
0000
0001
0030
1100
0000
0001
0001
1000
0000
1001
0000
,
0110
0000
0100
0100
0010
0000
0110
0000
0011
0000
1000
0020
0100
0100
0001
0100
,
1000
1000
0001
0100
1000
1000
0100
0001
1000
1000
0001
0001
1000
1000
0001
0130
,
1100
0000
0000
0000
0000
0000
0100
0000
0000
0000
0000
0000
0011
0000
0000
0000
0000
0000
0010
0000
0000
0000
0000
0000
1100
0000
0000
0000
0001
0000
0000
0000
0001
0000
0000
0000
1100
0000
0000
0000
0000
0000
0010
0000
0000
0000
0000
0000
0001
0000
0000
0000
0000
0000
0001
0000
0000
0001
0000
0000
0100
0000
0000
0000
0000
0000
0010
0000
0000
0000
0000
0000
1000
0000
0000
0000
0000
0000
0000
0000
0000
0000
0000
0000
0010
0000
0000
0000
0000
0000
0000
0000
0000
0000
0000
0000
,
0002
0010
0000
0000
1000
0000
0000
0003
1100
0000
1000
0000
0010
0000
0100
0000
,
0011
1001
1100
0011
1001
1000
0010
0100
,
1010
0101
1010
0101
0011
0001
0100
0010
,
0101
1010
0101
1010
1100
0001
0001
1001
,
1110
0000
0000
0000
0111
0000
0000
0000
0120
0000
0001
0000
1100
0000
0001
0030
,
1100
0000
1000
0000
0001
0000
1001
0000
1210
0000
1000
0000
0011
0000
1000
0300
,
0011
0000
0001
0000
1000
0000
1001
0000
0112
0000
0100
0003
2100
0000
0001
3000
,
1110
0000
1001
0000
1000
0000
1001
0000
0211
0000
1000
1000
0010
0300
0110
0000
,
0120
0000
0001
0000
1100
0000
0001
0030
1101
0000
0001
0001
1010
1000
0100
1000
,
0001
0000
1100
0000
1100
0000
0011
0000
1110
0001
0001
0001
1100
0000
0010
1000
,
0011
1000
1000
1001
0111
1100
0101
1010
,
1000
1000
0000
0000
0101
0000
1010
0000
1100
0010
0010
1000
0111
0000
1001
0000
,
0110
0100
0010
0000
1110
0000
0001
0000
1100
0000
1000
1000
0000
1000
1000
0000
,
0001
0000
1001
0000
0110
0000
1001
0000
2101
0001
0100
3100
0011
0000
0100
0001
,
2100
0000
0001
0000
0010
3000
0110
0000
1011
0000
0000
0000
0101
0000
1010
0000
,
1100
0000
0001
0001
1000
0000
1001
0000
0120
0100
0001
0001
1000
1030
0001
0001
,
0210
0000
0000
0010
0000
0000
1000
0000
0000
1000
0000
0000
0010
0000
0010
0000
0010
0000
1000
0000
0000
1000
0000
0000
0011
0000
0000
0000
0000
0000
0300
0000
0000
1100
0000
0000
0000
0000
0000
0000
0000
0000
1001
0000
0000
0000
0000
0000
,
0000
1000
1000
0000
0010
0000
0100
0000
1011
0000
1000
1000
0001
0000
1001
0000
,
1101
0000
0001
0001
1000
0000
1001
0000
1010
0000
1000
1000
0010
0000
0110
0000
,
1010
0000
0101
0000
1010
0000
0101
0000
0012
0000
1000
0003
2100
0000
0001
3001
,
0120
0100
0001
1030
0210
0000
1000
1300
0011
0000
0100
0001
1000
0000
1001
0000
,
0001
0000
1100
0000
0011
0000
1001
0000
1100
0000
1000
1000
0001
0000
1001
0000
,
1100
0000
1000
1000
0001
0000
1001
0000
0011
0000
1000
1000
0001
0000
1001
0000
,
1010
0000
0101
0000
1010
0000
0101
0000
0012
0000
1000
1000
0103
0010
0100
0100
,
0011
0000
1100
0000
1100
0000
0011
0000
2101
0000
0001
0100
0010
0000
0110
0000
,
0100
0000
0101
0000
0011
0000
0100
0000
3011
0000
0001
0001
1000
0000
1001
0000
,
1100
0000
1000
1000
0001
0000
1001
0000
1100
0000
0001
0001
0100
0000
0110
0000
,
0101
0000
1010
0000
0101
0000
1010
0000
1200
0000
0001
0300
0012
0000
1000
1003
,
0120
0100
0001
0130
2001
0000
0100
3100
0011
0000
0100
0001
1000
0000
1001
0000
,
0001
0000
1001
0000
0110
0000
1001
0000
0110
0000
0100
0010
0100
0000
0110
0000
,
0011
0000
0100
0010
0100
0000
0110
0000
1100
0000
0010
0100
0010
0000
0110
0000
,
1010
0000
0101
0000
1010
0000
0101
0000
0021
0000
1000
1000
0001
0031
0100
0010
,
1100
0000
0011
0000
0011
0000
1001
0000
0210
0000
1000
1300
0012
0000
1000
0003
,
2010
0000
0100
3001
0120
0100
0001
0130
1001
0000
1000
1000
0001
0000
1001
0000
,
0110
0000
0100
0100
0010
0000
0110
0000
0110
0000
0100
0020
1000
1000
0001
0100
,
0001
0001
1000
1000
0001
0100
0001
0100
0001
0001
1000
1000
0031
0100
0010
0100
,
0011
0000
0000
0010
0000
0000
1100
0000
0000
0100
0000
0000
0011
0000
0010
0000
0010
0000
0100
0000
0000
0010
0000
0000
2001
0000
0000
0000
0000
0000
0100
0000
0000
0000
0000
0000
0001
0000
0000
0000
0000
0000
0100
0000
0000
0010
0000
0000
,
0001
0000
0100
0000
3010
0000
0110
0000
0012
0000
1000
0000
1000
0000
0010
0013
,
1200
1000
0010
0000
1000
0000
0001
0310
0021
0000
1000
0000
1000
0030
1001
0100
,
0001
1000
0100
0010
0100
0010
1000
0001
1000
0100
0010
0001
1000
0100
0001
0010
,
0001
0010
0100
1000
0010
0100
1000
0001
1000
0001
0010
0100
1000
0010
0100
1000
,
0100
0000
0000
0010
0000
0000
0001
0000
0000
1000
0000
0000
0001
0000
0000
0010
0000
0000
0100
0000
0000
1000
0000
0000
0001
0000
0010
0000
0100
0000
1000
0000
0100
0000
0010
0000
1000
0000
0100
0000
0010
0000
0001
0000
0010
0000
0100
0000
,
0001
0000
0010
0000
0100
0000
1000
0000
0100
0000
0010
0000
1000
0000
0100
0000
0010
0000
0001
0000
0010
0000
0100
0000
1000
0000
0100
0000
0010
0000
0001
0000
0010
0000
0100
0000
0001
0000
0000
0100
0000
0000
0010
0000
0000
1000
0000
0000
,
0100
0010
0001
1000
0001
0100
1000
0010
1101
0000
0000
0000
0000
0000
0000
0000
,
0000
0000
0000
0000
0000
0000
0110
0000
1001
0000
0110
0000
2001
0000
0100
0100
,
0001
0000
3000
0000
0100
0000
0000
0000
0012
0000
0010
0000
1000
0003
0020
0000
0100
0000
0000
0030
1002
0000
0000
0003
0210
0000
0000
0000
0000
0300
0020
0000
,
0000
0000
0000
0030
2000
0000
0000
3000
0200
0000
0000
0000
2000
0300
0002
0000
0000
0000
0000
0003
3020
0000
0000
0030
0100
0000
0000
0000
0210
0000
0000
0000
,
0000
0300
0010
0001
1000
0001
0010
0100
0010
0100
1000
0001
0120
0000
0001
1030
,
0120
0000
0000
0000
0001
0030
0100
0000
1002
0000
1000
0000
0010
0000
0003
0000
0100
0000
0000
0000
0110
0000
0000
0000
1001
0000
0000
0000
0210
0000
0000
0000
,
0000
0000
0000
0000
0000
0000
0000
0000
0000
0300
0000
0000
0011
0000
0000
0000
0000
0000
1000
0000
0000
0010
0000
0000
0001
0000
0000
0100
0000
0000
0010
0000
0000
0001
0000
0000
1000
0000
0100
0000
0010
0000
0000
0000
0000
0001
0000
0000
,
1000
0100
0010
0001
0001
0010
0100
1000
0120
0100
0000
0030
1000
0100
0010
0001
,
0001
0010
0100
1000
1000
0001
0100
0010
0001
0010
0100
1000
1000
0001
0010
0100
,
1000
0000
0000
0100
0000
0000
0010
0000
0000
0001
0000
0000
1000
0000
0000
1000
0000
0000
0010
0000
0010
0000
0100
0000
0001
0000
0010
0000
0100
0000
1000
0000
0000
0000
0000
0000
0011
0000
0000
0000
0000
0000
1000
0000
0000
1000
0000
0000
,
0001
0000
1001
0000
1100
0000
0001
0001
1000
0000
1001
0000
0011
0000
1000
1000
,
0010
0000
0110
0000
2100
0000
0001
0000
0011
0000
3110
0000
0210
0000
0000
0300
,
1020
0000
0000
0030
0102
0000
0000
0003
2010
0000
0000
3000
0101
0000
0000
0001
,
0100
0000
0101
0000
0010
0000
0110
0000
1001
0000
0110
0000
1100
0000
1000
1000
,
0001
0000
0011
0000
1100
0000
1000
1000
0001
0000
0011
0000
1100
0000
1000
1000
,
0001
0000
1001
0000
1010
0000
0101
0000
1010
0000
0101
0000
0012
1000
0010
0013
,
0100
0010
0100
0100
1010
0000
0101
0000
1010
0000
0101
0000
0021
0000
0000
0030
,
1200
0000
0000
0300
2001
0000
0000
3000
1002
0000
0000
0003
1100
0000
1000
1000
,
0001
0000
1001
0000
1100
0000
0001
0001
1000
0000
1001
0000
0011
0000
1000
2000
,
0001
0001
0100
0010
0100
0100
0001
0010
0001
0001
0100
0010
0100
0100
0001
0010
,
0001
0001
0100
0010
0101
0001
0001
0110
3100
0100
0220
0000
0000
0000
0000
0000
,
0000
0000
0000
0000
,
0000
0000
0000
0300
,
0000
0000
0000
0030
,
0000
0000
0000
0000
,
0000
0000
0000
0000
;
